Установи плагин в браузер и забудь о поиске работающего зеркала Piratbit (после установки плагина заработает https://pb.wtf).

iTunes

1+1

iTunes

мы

iTunes

1

iTunes

Чернобыль

1 сезон

Ральф против интернета

Лицензия

ПШазам

Лицензия

Игра престолов

Лицензия

30
pack

ВАЖНО

!!Акция!!

Alien_RageХит недели

RePack

Resident Evil 21

ИГРА 18+

pack

RePack

Metro:Exodus

!!Акция!!

Alien_Rage

RePack

fifa19

RePack

Assassins Creed: Odyssey

RePack

NEED FOR SPEED™ PAYBACK

3 сезон

9 сезон

Бесстыжие 9 сезон

Все сериалы

все сериалы на PB.wtf

RePack

FAR CRY 5
Ребята, катастрофически не хватает 7730р. для оплаты серверов за ИЮЛЬ (всвязи с блокировками трафик упал в 3 раза), 1-2р., выручайте.
  

Битва при Сарагахри / Kesari (Анураг Сингх) [2019, Боевик, драма, военный, история, BD Remux 1080p] MVO [OnisFilms] +AVO [BadBajo] pirat-bit-ru.ga

Битва при Сарагахри через торрент pirat-bit-ru.ga

Размер: 38.81 GB | Добавлен: 12 д. назад | Торрент скачан:4 раза
Скачать  

08-08-2019 21:06 Битва при Сарагахри Скачать торрент  

Битва при Сарагахри / Kesari Год выпуска: 2019
Страна: Индия
Жанр: Боевик, драма, военный, история
Продолжительность: 02:33:17
Перевод:

Любительский (двухголосый, закадровый) | OnisFilms.
Авторский (одноголосый) |

Субтитры: Русские (на песни), английские

Режиссер: Анураг Сингх

rating


В ролях: Акшай Кумар, Паринити Чопра, Сувиндер Вики, Ванш Бхардвай, Самит Барсан, Аджит Сингх, Сандип Нахар, Харвиндер Сингх Аушла, Ракеш Шарма, Адхрит Шарма

Описание: Британская Индия, 12 сентября 1897 года. Отряд сикхов Британской Индийской армии на армейском посту в составе 21-го человека подвергается нападению десятитысячного войска пуштунов.

Качество: BD Remux 1080p
Формат: MKV

Видео: MPEG-4 AVC, 30.0 Мбит/с, 1920х1080
Аудио#1: Русский (АС3, 2 ch, 192 Кбит/с) - OnisFilms.
Аудио#2: Русский (АС3, 6 ch, 640 Кбит/с) - А.Важенин (BadBajo).
Аудио#3: хинди (DTS-HD MA, 6 ch, 4477 Кбит/с)
Аудио#4: хинди (DTS, 6 ch, 1509 Кбит/с)
Аудио#5: хинди (АС3, 6 ch, 448 Кбит/с)
Аудио#6: хинди (АС3, 2 ch, 224 Кбит/с)
скриншот  скриншот  скриншот  скриншот  скриншот  

Общее
Уникальный идентификатор : 6486705704177967878807851629882334177 (0x4E14B488A09267382F02C9B8EB35BE1)
Полное имя : D:\Загрузки2\Kesari 2019 BluRay Remux 1080p Rus.mkv
Формат : Matroska
Версия формата : Version 4
Размер файла : 38,8 Гбайт
Продолжительность : 2 ч. 33 м.
Режим общего битрейта : Переменный
Общий поток : 36,1 Мбит/сек
Дата кодирования : UTC 2019-08-08 01:12:56
Программа кодирования : mkvmerge v35.0.0 ('All The Love In The World') 64-bit
Библиотека кодирования : libebml v1.3.9 + libmatroska v1.5.2

Видео
Идентификатор : 1
Формат : AVC
Формат/Информация : Advanced Video Codec
Профиль формата : High@L4.1
Настройки формата : CABAC / 4 Ref Frames
Параметр CABAC формата : Да
Параметр RefFrames формата : 4 кадра
Параметр GOP формата : M=3, N=12
Идентификатор кодека : V_MPEG4/ISO/AVC
Продолжительность : 2 ч. 33 м.
Вид битрейта : Постоянный
Битрейт : 30,0 Мбит/сек
Ширина : 1920 пикселей
Высота : 1080 пикселей
Соотношение сторон : 16:9
Режим частоты кадров : Постоянный
Частота кадров : 24,000 кадра/сек
Цветовое пространство : YUV
Субдискретизация насыщенности : 4:2:0
Битовая глубина : 8 бит
Тип развёртки : Прогрессивная
Бит/(Пиксели*Кадры) : 0.603
Размер потока : 30,7 Гбайт (79%)
Default : Нет
Forced : Нет

Аудио #1
Идентификатор : 2
Формат : AC-3
Формат/Информация : Audio Coding 3
Коммерческое название : Dolby Digital
Идентификатор кодека : A_AC3
Продолжительность : 2 ч. 33 м.
Вид битрейта : Постоянный
Битрейт : 192 Кбит/сек
Каналы : 2 канала
ChannelLayout : L R
Частота : 48,0 КГц
Частота кадров : 31,250 кадров/сек (1536 SPF)
Битовая глубина : 16 бит
Метод сжатия : С потерями
Размер потока : 211 Мбайт (1%)
Заголовок : Любительский (двухголосый, закадровый) - OnisFilms
Язык : Russian
ServiceKind/String : Complete Main
Default : Нет
Forced : Нет

Аудио #2
Идентификатор : 3
Формат : AC-3
Формат/Информация : Audio Coding 3
Коммерческое название : Dolby Digital
Идентификатор кодека : A_AC3
Продолжительность : 2 ч. 33 м.
Вид битрейта : Постоянный
Битрейт : 640 Кбит/сек
Каналы : 6 каналов
ChannelLayout : L R C LFE Ls Rs
Частота : 48,0 КГц
Частота кадров : 31,250 кадров/сек (1536 SPF)
Битовая глубина : 16 бит
Метод сжатия : С потерями
Размер потока : 704 Мбайт (2%)
Заголовок : Авторский - (Важенин (BadBajo))
Язык : Russian
ServiceKind/String : Complete Main
Default : Нет
Forced : Нет

Аудио #3
Идентификатор : 4
Формат : DTS XLL
Формат/Информация : Digital Theater Systems
Коммерческое название : DTS-HD Master Audio
Идентификатор кодека : A_DTS
Продолжительность : 2 ч. 33 м.
Вид битрейта : Переменный
Битрейт : 4477 Кбит/сек
Каналы : 6 каналов
ChannelLayout : C L R Ls Rs LFE
Частота : 48,0 КГц
Частота кадров : 93,750 кадра/сек (512 SPF)
Битовая глубина : 24 бит
Метод сжатия : Без потерь
Размер потока : 4,81 Гбайт (12%)
Заголовок : Surround 5.1
Язык : Hindi
Default : Да
Forced : Нет

Аудио #4
Идентификатор : 5
Формат : DTS
Формат/Информация : Digital Theater Systems
Идентификатор кодека : A_DTS
Продолжительность : 2 ч. 33 м.
Вид битрейта : Постоянный
Битрейт : 1509 Кбит/сек
Каналы : 6 каналов
ChannelLayout : C L R Ls Rs LFE
Частота : 48,0 КГц
Частота кадров : 93,750 кадра/сек (512 SPF)
Битовая глубина : 24 бит
Метод сжатия : С потерями
Размер потока : 1,62 Гбайт (4%)
Заголовок : Surround 5.1
Язык : Hindi
Default : Нет
Forced : Нет

Аудио #5
Идентификатор : 6
Формат : AC-3
Формат/Информация : Audio Coding 3
Коммерческое название : Dolby Digital
Идентификатор кодека : A_AC3
Продолжительность : 2 ч. 33 м.
Вид битрейта : Постоянный
Битрейт : 448 Кбит/сек
Каналы : 6 каналов
ChannelLayout : L R C LFE Ls Rs
Частота : 48,0 КГц
Частота кадров : 31,250 кадров/сек (1536 SPF)
Битовая глубина : 16 бит
Метод сжатия : С потерями
Размер потока : 493 Мбайт (1%)
Заголовок : Surround 5.1
Язык : Hindi
ServiceKind/String : Complete Main
Default : Нет
Forced : Нет

Аудио #6
Идентификатор : 7
Формат : AC-3
Формат/Информация : Audio Coding 3
Коммерческое название : Dolby Digital
Идентификатор кодека : A_AC3
Продолжительность : 2 ч. 33 м.
Вид битрейта : Постоянный
Битрейт : 224 Кбит/сек
Каналы : 2 канала
ChannelLayout : L R
Частота : 48,0 КГц
Частота кадров : 31,250 кадров/сек (1536 SPF)
Битовая глубина : 16 бит
Метод сжатия : С потерями
Размер потока : 246 Мбайт (1%)
Заголовок : Stereo
Язык : Hindi
ServiceKind/String : Complete Main
Default : Нет
Forced : Нет

Текст #1
Идентификатор : 8
Формат : UTF-8
Идентификатор кодека : S_TEXT/UTF8
Идентификатор кодека/Информация : UTF-8 Plain Text
Продолжительность : 1 ч. 58 м.
Битрейт : 6 бит/сек
ElementCount : 92
Размер потока : 5,79 Кбайт (0%)
Заголовок : На песни
Язык : Russian
Default : Да
Forced : Нет

Текст #2
Идентификатор : 9
Формат : PGS
Режим смешивания : zlib
Идентификатор кодека : S_HDMV/PGS
Идентификатор кодека/Информация : Picture based subtitle format used on BDs/HD-DVDs
Продолжительность : 2 ч. 26 м.
Битрейт : 15,1 Кбит/сек
ElementCount : 2303
Размер потока : 15,7 Мбайт (0%)
Язык : English
Default : Нет
Forced : Нет

Меню
00:00:00.000 : en:Chapter 01
00:10:52.541 : en:Chapter 02
00:27:04.958 : en:Chapter 03
00:31:50.750 : en:Chapter 04
00:43:10.458 : en:Chapter 05
00:56:37.875 : en:Chapter 06
00:59:25.208 : en:Chapter 07
01:05:40.708 : en:Chapter 08
01:10:18.250 : en:Chapter 09
01:13:37.250 : en:Chapter 10
01:15:07.750 : en:Chapter 11
01:21:55.958 : en:Chapter 12
01:31:45.916 : en:Chapter 13
01:37:59.416 : en:Chapter 14
01:40:14.166 : en:Chapter 15
01:48:34.541 : en:Chapter 16
01:53:09.291 : en:Chapter 17
02:06:11.583 : en:Chapter 18
02:07:13.166 : en:Chapter 19
02:10:16.708 : en:Chapter 20
02:19:27.625 : en:Chapter 21
02:21:00.000 : en:Chapter 22
02:24:59.666 : en:Chapter 23
02:28:42.625 : en:Chapter 24

pirat-bit-ru.ga



Скачать Битва при Сарагахри через торрент https://d.radikal.ru/d11/1905/1e/c50d7ee3215f.jpg Скачать фильм Битва при Сарагахри через торрент бесплантно в хорошем качестве Описание: Британская Индия, 12 сентября 1897 года. Отряд сикхов Британской Индийской армии на армейском посту в составе 21-го человека ... 10 10 2
Info! Золотая раздача, скачанное не засчитывается.
Торрент: Зарегистрирован [2019-08-08 21:06] · скачан: 4 раз
Статус: √ проверено
Размер: 38.81 GB
Как cкачать? Как скачать Битва при Сарагахри через торрент | qTorrent

% Раздел Тема Автор DL S | L
Индийское кино [ 3.42 GB ] Битва при Сарагахри / Kesari [2019 военный история BDRip-AVC] [AVO] - ExKinoRay Enigma2010 Скачать
22 | 1
Индийское кино [ 2.18 GB ] Битва при Сарагахри / Kesari [2019 военный история WEB-DLRip] [AVO] killermax2013 Скачать
1 | 0
Индийское кино [ 10.4 GB ] Битва при Сарагахри / Kesari [2019 военный история WEB-DL 1080p] AVO [BadBajo] bober100 Скачать
2 | 0


>> Регистрируемся здесь <<






Отзывы и комментарии о схеме читаем и пишем здесь: ---> Отзывы и комментарии о схеме

Новые благодарочки в телеграм довольных пользователей:
скриншот   скриншот   скриншот   скриншот   скриншот
    Дорогой пользователь! Огромная просьба, поблагодарите релизера, оцените раздачу и оставьте свои комментарий, если Вы скачали Битва при Сарагахри через торрент бесплатно! Внесите свою лепту в развитие PiratBit!
    Комментировать посты могут только пользователи прошедшие не сложную регистрацию
    Показать сообщения:    

    Битва при Сарагахри через торрент
    Скачать бесплатно Битва при Сарагахри
    Битва при Сарагахри скачать торрент
    Битва при Сарагахри смотреть онлайн
    Cкачать фильм Битва при Сарагахри бесплатно
    Битва при Сарагахри скачать торрент в хорошем качестве
    Битва при Сарагахри смотреть онлайн бесплатно в хорошем качестве


    Вы не можете начинать темы
    Вы не можете отвечать на сообщения
    Вы не можете редактировать свои сообщения
    Вы не можете удалять свои сообщения
    Вы не можете голосовать в опросах
    Вы не можете прикреплять файлы к сообщениям
    Вы можете скачивать файлы