Установи плагин в браузер и забудь о поиске работающего зеркала Piratbit (после установки плагина заработает https://pb.wtf).

iTunes

1+1

iTunes

мы

iTunes

1

iTunes

Чернобыль

1 сезон

Ральф против интернета

Лицензия

ПШазам

Лицензия

Игра престолов

Лицензия

30
pack

ВАЖНО

!!Акция!!

Alien_RageХит недели

RePack

Resident Evil 21

ИГРА 18+

pack

RePack

Metro:Exodus

!!Акция!!

Alien_Rage

RePack

fifa19

RePack

Assassins Creed: Odyssey

RePack

NEED FOR SPEED™ PAYBACK

3 сезон

9 сезон

Бесстыжие 9 сезон

Все сериалы

все сериалы на PB.wtf

RePack

FAR CRY 5
Ребята, катастрофически не хватает 7730р. для оплаты серверов за ИЮЛЬ (всвязи с блокировками трафик упал в 3 раза), 1-2р., выручайте.
  

Смертельный укус / Killing Bites / Сезон: 1 / Серии: 1-12 из 12 (Нисиката Ясуто,LideNFilms) [2018,Anime,Еtti, horror, fiction ,WEBRip 720] pirat-bit-ru.ga

Смертельный укус через торрент pirat-bit-ru.ga

Раздают: 1 [ 0 KB/s ]
Размер: 5.23 GB | Добавлен: 11 д. назад | Торрент скачан:7 раз
Скачать  

09-08-2019 21:59 Смертельный укус Скачать торрент  

Смертельный укус / Killing Bites Год выхода: 2018
Страна:
Жанр: Anime,Еtti, horror, fiction
Продолжительность: 12 с по 00:24:12
Язык: Русский, Японский
Перевод: Любительский (многоголосый, закадровый)
Художник: Ёкомацу Норихико, Икэда Юдзи


Режиссер: Нисиката Ясуто
Студия:

В ролях: Амамия Сора, Хатано Ватару, Утида Маая, Уэсака Сумирэ, Акасаки Тинацу, Окава Тору, Накамура Юйти, Харада Саяка, Хан Мэгуми, Кояма Рикия

Об аниме:
Гибриды людей и животных участвуют в нелегальных боях, где гиганты финансового мира делают ставки на баснословные суммы. Однажды знакомые просят студента колледжа Номото Юи покатать их по городу, чтобы покадрить девчонок. Однако вскоре он выясняет, что кадрить знакомые собрались насильно. Похищенная ими Хитоми оказалась гибридом человека и медоеда — самого бесстрашного зверя. Девушка убивает всех своих обидчиков. Кроме нашего Юи, ведь она решила остаться с ним, чтобы всегда защищать.

Качество: WEBRip
Формат: MKV
Кодек: H.264
Аудио кодек: AAC
Видео: 1280x720, 23.976 fps, 2100 kbps
Аудио RUS: 48.0 kHz, AAC, 2 ch, 192 kbps - KANSAI
Аудио RUS: 48.0 kHz, AAC, 2 ch, 192 kbps - AniDub
Аудио RUS: 48.0 kHz, AAC, 2 ch, 192 kbps - AniLibria
Аудио JAP: 44.1 kHz, AAC, 2 ch, 128 kbps

Субтитры: русские (встроенные надписи, ASS)
Субтитры: русские (встроенные полный перевод, ASS) - SovetRomantica
Субтитры: русские (встроенные полный перевод, ASS) - AniPlay
Субтитры: русские (встроенные полный перевод, ASS) - Kriegsmarine
Общее
Уникальный идентификатор : 204729760481621657483480726889609881665 (0x9A058482DE0E70D8A5A4EEDBC078E841)
Полное имя Killing Bites[WEBRip] [720p]\Killing Bites[WEBRip] [720p] [06].mkv
Формат : Matroska
Версия формата : Version 4 / Version 2
Размер файла : 477 Мбайт
Продолжительность : 24 м. 15 с.
Режим общего битрейта : Переменный
Общий поток : 2747 Кбит/сек
Дата кодирования : UTC 2018-05-02 06:34:04
Программа кодирования : mkvmerge v8.3.0 ('Over the Horizon') 64bit
Библиотека кодирования : libebml v1.3.1 + libmatroska v1.4.2

Видео
Идентификатор : 1
Формат : AVC
Формат/Информация : Advanced Video Codec
Профиль формата : High@L3.1
Настройки формата : CABAC / 5 Ref Frames
Параметр CABAC формата : Да
Параметр RefFrames формата : 5 кадров
Идентификатор кодека : V_MPEG4/ISO/AVC
Продолжительность : 24 м. 11 с.
Вид битрейта : Переменный
Битрейт : 2049 Кбит/сек
Максимальный битрейт : 4500 Кбит/сек
Ширина : 1280 пикселей
Высота : 720 пикселей
Соотношение сторон : 16:9
Режим частоты кадров : Постоянный
Частота кадров : 23,976 (24000/1001) кадра/сек
Цветовое пространство : YUV
Субдискретизация насыщенности : 4:2:0
Битовая глубина : 8 бит
Тип развёртки : Прогрессивная
Бит/(Пиксели*Кадры) : 0.093
Размер потока : 355 Мбайт (74%)
Default : Да
Forced : Нет
Цветовой диапазон : Limited
Основные цвета : BT.709
Характеристики трансфера : BT.709
Коэффициенты матрицы : BT.709

Аудио #1
Идентификатор : 2
Формат : AAC
Формат/Информация : Advanced Audio Codec
Профиль формата : LC
Идентификатор кодека : A_AAC-2
Продолжительность : 24 м. 12 с.
Битрейт : 192 Кбит/сек
Каналы : 2 канала
Расположение каналов : Front: L R
Частота : 48,0 КГц
Частота кадров : 46,875 кадров/сек (1024 SPF)
Метод сжатия : С потерями
Размер потока : 32,8 Мбайт (7%)
Заголовок : KANSAI
Язык : Russian
Default : Да
Forced : Нет

Аудио #2
Идентификатор : 3
Формат : AAC
Формат/Информация : Advanced Audio Codec
Профиль формата : LC
Идентификатор кодека : A_AAC-2
Продолжительность : 24 м. 12 с.
Битрейт : 192 Кбит/сек
Каналы : 2 канала
Расположение каналов : Front: L R
Частота : 48,0 КГц
Частота кадров : 46,875 кадров/сек (1024 SPF)
Метод сжатия : С потерями
Размер потока : 33,3 Мбайт (7%)
Заголовок : AniDub
Язык : Russian
Default : Нет
Forced : Нет

Аудио #3
Идентификатор : 4
Формат : AAC
Формат/Информация : Advanced Audio Codec
Профиль формата : LC
Идентификатор кодека : A_AAC-2
Продолжительность : 24 м. 12 с.
Битрейт : 192 Кбит/сек
Каналы : 2 канала
Расположение каналов : Front: L R
Частота : 48,0 КГц
Частота кадров : 46,875 кадров/сек (1024 SPF)
Метод сжатия : С потерями
Размер потока : 33,3 Мбайт (7%)
Заголовок : AniLibria
Язык : Russian
Default : Нет
Forced : Нет

Аудио #4
Идентификатор : 5
Формат : AAC
Формат/Информация : Advanced Audio Codec
Профиль формата : LC
Идентификатор кодека : A_AAC-2
Продолжительность : 24 м. 12 с.
Битрейт : 125 Кбит/сек
Каналы : 2 канала
Расположение каналов : Front: L R
Частота : 48,0 КГц
Частота кадров : 46,875 кадров/сек (1024 SPF)
Метод сжатия : С потерями
Размер потока : 21,7 Мбайт (5%)
Заголовок : Original
Язык : Japanese
Default : Нет
Forced : Нет

Текст #1
Идентификатор : 6
Формат : ASS
Идентификатор кодека : S_TEXT/ASS
Идентификатор кодека/Информация : Advanced Sub Station Alpha
Продолжительность : 21 м. 34 с.
Битрейт : 12 бит/сек
ElementCount : 16
Метод сжатия : Без потерь
Размер потока : 1,91 Кбайт (0%)
Заголовок : Надписи
Язык : Russian
Default : Да
Forced : Нет

Текст #2
Идентификатор : 7
Формат : ASS
Идентификатор кодека : S_TEXT/ASS
Идентификатор кодека/Информация : Advanced Sub Station Alpha
Продолжительность : 24 м. 9 с.
Битрейт : 161 бит/сек
ElementCount : 349
Метод сжатия : Без потерь
Размер потока : 28,5 Кбайт (0%)
Заголовок : Полные субтитры - SovetRomantica
Язык : Russian
Default : Нет
Forced : Нет

Текст #3
Идентификатор : 8
Формат : ASS
Идентификатор кодека : S_TEXT/ASS
Идентификатор кодека/Информация : Advanced Sub Station Alpha
Продолжительность : 24 м. 5 с.
Битрейт : 157 бит/сек
ElementCount : 341
Метод сжатия : Без потерь
Размер потока : 27,7 Кбайт (0%)
Заголовок : Полные субтитры - AniPlay
Язык : Russian
Default : Нет
Forced : Нет

Текст #4
Идентификатор : 9
Формат : ASS
Идентификатор кодека : S_TEXT/ASS
Идентификатор кодека/Информация : Advanced Sub Station Alpha
Продолжительность : 24 м. 5 с.
Битрейт : 159 бит/сек
ElementCount : 333
Метод сжатия : Без потерь
Размер потока : 28,1 Кбайт (0%)
Заголовок : Полные субтитры - Kriegsmarine
Язык : Russian
Default : Нет
Forced : Нет
01. Победит тот, у кого острее клыки.
02. Чёрт, я могу влюбиться в тебя.
03. Во мне, правда, нет ничего хорошего.
04. Вот почему я сказала тебе остановиться, подонок!
05. Я могу заниматься сексом, как хочу.
06. Да кого это волнует?
07. Это то… что я чувствую!
08. Это очень, очень, очень плохо!
09. Я никогда не передумаю!
10. Пойдём со мной.
11. Не обижай маму!
12. Спасибо за всё.
скриншот  
скриншот  
скриншот  
скриншот  
скриншот  
скриншот  
скриншот  
скриншот  
скриншот  
скриншот  
pirat-bit-ru.ga



Скачать Смертельный укус через торрент https://b.radikal.ru/b26/1908/e6/2ca95edb6d0a.gif Скачать фильм Смертельный укус через торрент бесплантно в хорошем качестве В ролях: Амамия Сора, Хатано Ватару, Утида Маая, Уэсака Сумирэ, Акасаки Тинацу, Окава Тору, Накамура Юйти, Харада Саяка, Хан Мэгуми, Кояма ... 10 10 2
Торрент: Зарегистрирован [2019-08-10 11:00] · скачан: 7 раз
Статус: √ проверено
Размер: 5.23 GB
Как cкачать? Как скачать Смертельный укус через торрент | qTorrent



Последний раз редактировалось: DJASFUL (2019-08-10 15:51), всего редактировалось 8 раз(а)


>> Регистрируемся здесь <<






Отзывы и комментарии о схеме читаем и пишем здесь: ---> Отзывы и комментарии о схеме

Новые благодарочки в телеграм довольных пользователей:
скриншот   скриншот   скриншот   скриншот   скриншот
    Дорогой пользователь! Огромная просьба, поблагодарите релизера, оцените раздачу и оставьте свои комментарий, если Вы скачали Смертельный укус через торрент бесплатно! Внесите свою лепту в развитие PiratBit!
    Комментировать посты могут только пользователи прошедшие не сложную регистрацию
    Показать сообщения:    

    Смертельный укус через торрент
    Скачать бесплатно Смертельный укус
    Смертельный укус скачать торрент
    Смертельный укус смотреть онлайн
    Cкачать фильм Смертельный укус бесплатно
    Смертельный укус скачать торрент в хорошем качестве
    Смертельный укус смотреть онлайн бесплатно в хорошем качестве


    Вы не можете начинать темы
    Вы не можете отвечать на сообщения
    Вы не можете редактировать свои сообщения
    Вы не можете удалять свои сообщения
    Вы не можете голосовать в опросах
    Вы не можете прикреплять файлы к сообщениям
    Вы можете скачивать файлы